#TITLE:HARDCORE HOLIC;
#SUBTITLE:;
#ARTIST:TaQ;
#TITLETRANSLIT:;
#SUBTITLETRANSLIT:;
#ARTISTTRANSLIT:;
#CREDIT:;
#BANNER:Hardcore Holic-banner.png;
#BACKGROUND:Hardcore Holic-bg.png;
#LYRICSPATH:;
#CDTITLE:;
#MUSIC:Hardcore Holic.mp3;
#MUSICLENGTH:95.686;
#OFFSET:-0.140;
#SAMPLESTART:55.065;
#SAMPLELENGTH:12.000;
#SELECTABLE:YES;
#BPMS:0.000=174.540;
#STOPS:;
#BGCHANGES:;
#FIRSTBEAT:24.000;

#LASTBEAT:275.500;

#SONGFILENAME:Songs/ERICth MIX 2nd Style/Hardcore Holic/holic.sm;

#HASMUSIC:1;

#HASBANNER:1;


//---------------dance-single - MANIAC----------------
#NOTES:
     dance-single:
     MANIAC:
     hard:
     8:
     0.670,0.648,0.303,0.063,0.000,414.000,29.000,6.000,0.000,0.000:


0000
0000
0000
0000
,
0000
0000
0000
0000
,
0000
0000
0000
0000
,
0000
0000
0000
0000
,
0000
0000
0000
0000
,
0000
0000
0000
0000
,
1000
0100
0010
0100
0001
0100
1000
1000
,
0010
0001
0010
1000
0100
0010
0010
0001
,
1000
0100
0010
1000
0100
0100
0010
1000
,
0001
0100
0001
1000
1000
0010
0100
0010
,
0001
1000
0010
0010
0001
1000
0010
0100
,
0001
0100
0100
0000
0000
0000
0000
0000
,
1001
0100
1000
0100
0010
0100
0010
0100
,
0110
0000
0110
0000
1000
0001
0010
0001
,
1000
0000
1000
0000
1000
0001
0100
0001
,
0110
0000
0110
0000
1000
0100
0001
0100
,
1000
0100
0010
0100
0010
1000
0001
0000
,
0110
0000
0110
0000
1000
0001
1000
0000
,
0100
1000
0001
1000
0010
0001
0010
1000
,
0000
0001
0000
1001
0000
1001
0000
0000
,
0001
1000
0001
0200
0000
0000
0310
0000
,
1000
0001
1000
0200
0000
0000
0310
0000
,
2000
0000
0000
3100
0020
0000
0000
0031
,
1000
0000
0010
0000
1000
0100
1000
0000
,
0011
0100
1000
0001
0100
0001
1000
0100
,
1000
0001
0100
0001
1000
0001
1000
0010
,
1000
0100
0001
0100
1000
0010
0001
0010
,
0100
0010
1000
0100
0010
0001
0100
0010
,
1000
0100
1000
0100
0001
0100
0001
0100
,
0010
0100
0010
0100
0010
0100
0010
0001
,
1000
0100
1000
0001
1000
0000
1000
0001
,
1000
0100
1000
0000
0010
1000
0100
1000
,
0000
1000
0100
0010
0100
1000
0100
0000
,
1000
0100
0010
0100
1000
0001
1000
1000
,
0001
0001
0100
0100
0010
0010
0001
0010
,
0100
0001
0010
0100
0000
1000
0100
0010
,
0000
0010
0001
1000
0100
1000
0001
0100
,
0001
0001
0001
0001
,
1010
0100
0010
0100
0001
0100
1000
0010
,
0100
0010
0220
0000
0330
0000
0000
0000
,
1000
0100
1000
0100
1000
0100
1000
1000
,
0100
1000
0100
1000
0100
0010
0010
0001
,
0010
0001
0010
0001
0010
0010
0001
0010
,
0001
0010
0001
0010
0010
0000
0000
0000
,
1000
0100
0010
0001
1000
0100
0010
0000
,
1000
0100
0010
0001
1000
0000
0110
0000
,
1001
0000
0000
1010
0000
0000
1000
0001
,
1001
0000
0000
0011
0000
0000
0001
1000
,
1001
0000
0000
1010
0000
0000
0010
0100
,
0110
0000
0000
0101
0000
0000
0010
0100
,
0110
0000
0000
0110
0000
0000
0100
1000
,
1100
0000
0000
1100
0000
0000
0010
0100
,
0110
0000
0010
1000
0010
0000
1000
0010
,
1000
0000
1000
0000
0100
0100
0001
0100
,
0110
0010
0001
1000
0100
1000
0010
0100
,
0001
0010
1000
0100
1000
0010
0001
0010
,
0100
0010
1000
0001
0100
0010
1000
1000
,
0001
0001
0100
0100
0010
0010
0100
0001
,
1000
0100
1000
0001
0100
0001
1000
0100
,
0010
0100
0010
0001
0010
1000
0010
1000
,
0010
0001
0010
0000
1000
0100
0010
0100
,
1000
0000
1000
0000
1000
1000
0001
0000
,
1000
0100
0010
0100
0001
0100
1000
1000
,
0010
0001
0010
1000
0100
0010
0010
0001
,
1000
0100
0010
1000
0100
0100
0010
1000
,
0001
0100
0001
1000
1000
0010
0100
0010
,
0001
1000
0010
0010
0001
1000
0010
0100
,
0001
0100
0100
0000
1001
0000
0000
0000
,
1000
0001
1000
0010
1000
0001
1000
0110;

//---------------dance-single - ANOTHER----------------
#NOTES:
     dance-single:
     ANOTHER:
     medium:
     5:
     0.402,0.468,0.021,0.021,0.000,265.000,2.000,2.000,0.000,0.000:


0000
0000
0000
0000
,
0000
0000
0000
0000
,
0000
0000
0000
0000
,
0000
0000
0000
0000
,
0000
0000
0000
0000
,
0000
0000
0000
0000
,
1000
0000
1000
0000
1000
0000
1000
0010
,
0000
0010
0000
0010
0000
0010
0100
0000
,
0100
0000
0100
0000
0100
0001
0000
0001
,
0000
0001
0000
0001
1000
0000
1000
0000
,
1000
0000
1000
0001
0000
0001
0000
0001
,
0000
0001
0100
0000
0000
0000
0000
0000
,
0100
1000
0010
1000
,
0100
0000
1000
0000
0010
0000
1000
0100
,
1000
0001
0100
0001
,
0010
0000
0001
0000
0100
0000
0001
0100
,
1000
1000
0100
0010
,
0001
0000
0100
0000
0001
0000
0010
0001
,
0010
0001
1000
0002
,
0013
0100
1000
0001
,
0001
0000
0000
0001
0000
0000
0100
0000
,
1000
0000
0000
1000
0000
0000
0010
0000
,
0010
0000
0010
0000
,
0010
0000
0010
0000
0010
0010
0010
0000
,
0010
0000
1000
0000
0001
0000
0010
0100
,
0010
0000
0001
0000
1000
0000
0010
1000
,
0001
0000
0100
0000
0001
0000
0010
0001
,
0010
0000
0001
0000
0001
0000
1000
0010
,
0001
0000
0001
0000
0010
0000
0100
1000
,
0010
0000
0001
0000
0001
0000
0100
0001
,
0010
0000
0001
0000
0001
0000
1000
0001
,
1000
0001
0001
0010
,
0010
0010
0010
0010
,
0010
1000
1000
1000
,
1000
0001
0001
0001
,
0100
0100
0100
0010
,
0100
0100
0100
0010
,
0010
0010
1000
1000
,
0001
0001
0001
0001
,
1000
1000
1000
1000
,
0001
0000
0001
0000
0001
0000
0001
0100
,
0000
0100
0000
0100
0000
0100
0010
0000
,
0010
0000
0010
0000
0010
1000
0000
1000
,
0000
1000
0000
1000
0001
0000
0001
0000
,
0001
0000
0001
0010
0000
0010
0000
0010
,
0000
0010
0200
0000
0000
0000
0000
0000
,
0310
0000
0000
0010
0000
0000
0000
0000
,
0010
0000
0000
0000
0000
0000
0010
1000
,
0001
0000
0000
0100
0000
0000
0010
1000
,
0100
0000
0000
0100
0000
0000
0010
0001
,
1000
0000
0000
0001
0000
0000
0100
1000
,
0010
0000
0000
0001
0000
0000
0100
1000
,
0010
0000
0010
0000
,
0010
0000
0010
0000
0010
0010
0010
0000
,
0001
0000
1000
0000
0010
0000
1000
0001
,
1000
0100
0010
0001
,
1000
0100
0010
0010
,
0110
0000
0110
0000
0010
1000
0001
0000
,
0100
0010
0100
1000
,
0001
0100
0010
1000
,
0001
0000
0010
0000
0001
0000
0001
0010
,
0001
0010
0001
0010
0001
0010
0001
0000
,
0100
0000
0100
0000
0100
0000
0100
0010
,
0000
0010
0000
0010
0000
0010
0100
0000
,
0100
0000
0100
0000
0100
0001
0000
0001
,
0000
0001
0000
0001
1000
0000
1000
0000
,
1000
0000
1000
0001
0000
0001
0000
0001
,
0000
0001
0100
0000
0000
0000
0000
0000
,
0100
0000
0100
0000
0100
0000
0100
1000;

//---------------dance-single - BASIC----------------
#NOTES:
     dance-single:
     BASIC:
     easy:
     4:
     0.152,0.252,0.063,0.010,0.000,95.000,6.000,1.000,0.000,0.000:


0000
0000
0000
0000
,
0000
0000
0000
0000
,
0000
0000
0000
0000
,
0000
0000
0000
0000
,
0000
0000
0000
0000
,
0000
0000
0000
0000
,
0001
0000
0000
0000
0000
0000
0000
0001
,
0000
0000
0000
0001
,
0000
0000
0000
0000
0000
0001
0000
0000
,
0000
0000
0010
0000
,
0000
0000
0000
0010
0000
0000
0000
0000
,
0000
0010
0000
0000
,
0100
0000
0000
0000
,
0100
0000
1000
0000
,
0100
0000
0000
0000
,
0001
0000
0010
0000
,
0001
0000
0000
0000
,
0100
0000
0000
0000
,
1000
0000
0001
0000
,
0100
0000
0000
0000
,
0010
0000
0000
0010
0000
0000
0000
0000
,
0010
0000
0000
0010
0000
0000
0000
0000
,
0010
0000
0010
0000
,
0010
0000
0010
0000
,
0010
0000
0001
0000
,
1000
0000
0100
0000
,
1000
0000
0001
0000
,
0100
1000
0100
0000
,
0001
0000
0100
0000
,
0010
0000
1000
0000
,
0001
0000
0100
0000
,
0001
0000
0010
0000
,
0001
0000
0000
0000
,
0001
0000
0000
0000
,
1000
0000
0000
0000
,
1000
0000
0020
0000
0000
0000
0000
0030
,
0100
0000
0000
0000
,
0100
0000
0000
0000
,
0010
0000
0000
0000
,
0010
0000
0010
0000
,
1000
0000
0000
0000
0000
0000
0000
1000
,
0000
0000
0000
1000
,
0000
0000
0000
0000
0000
1000
0000
0000
,
0000
0000
1000
0000
,
0000
0000
0000
1000
0000
0000
0000
0000
,
0000
1000
0000
0000
,
0010
0000
0000
0000
,
1001
0000
0000
0000
,
0100
0000
0000
0001
0000
0000
0000
0000
,
0010
0000
0000
1000
0000
0000
0000
0000
,
0100
0000
0000
0000
,
1001
0000
0000
0000
,
0100
0000
0010
0000
,
0100
0010
0100
0010
,
0100
0000
0000
0000
,
0001
0000
1000
0000
,
1100
0000
0000
0000
,
0010
0000
0001
0000
,
0101
0000
0000
0000
,
0010
0000
0100
0000
,
1010
0000
0000
0000
,
0100
0000
0001
0000
,
0011
0000
0000
0000
0000
0000
0000
1000
,
0000
0000
0000
1000
,
0000
0000
0000
0000
0000
1000
0000
0000
,
0000
0000
1000
0000
,
0000
0000
0000
1000
0000
0000
0000
0000
,
0000
1000
0000
0000
,
0001
0000
0000
0000
0000
0000
0000
0001;
